<?xml version="1.0" standalone="no"?> <!DOCTYPE svg PUBLIC "-//W3C//DTD SVG 1.0//EN" "http://www.w3.org/TR/2001/REC-SVG-20010904/DTD/svg10.dtd" > <svg xmlns="http://www.w3.org/2000/svg" width="100%" height="100%">
<defs >
<font horiz-adv-x="397" ><font-face
    font-family="Pink Sans"
    units-per-em="1000"
    panose-1="2 0 0 0 0 0 0 0 0 0"
    ascent="900"
    descent="-200"
    alphabetic="0" />
<missing-glyph horiz-adv-x="820" d="M410 425L503 553H617L467 350L617 147H503L410 275L317 147H203L353 350L203 553H317L410 425ZM150 81H670V619H150V81ZM760 700V0H60V700H760Z" />
<glyph unicode=" " glyph-name="space" horiz-adv-x="200" />
<glyph unicode="!" glyph-name="exclam" horiz-adv-x="220" d="M45 130H175V0H45V130ZM29 700H191L158 213H62L29 700Z" />
<glyph unicode="&quot;" glyph-name="quotedbl" horiz-adv-x="427" d="M231 700H383L362 441H252L231 700ZM44 700H196L175 441H65L44 700Z" />
<glyph unicode="#" glyph-name="numbersign" horiz-adv-x="423" d="M177 285H247V415H177V285ZM397 173H343V0H247V173H177V0H80V173H27V285H80V415H27V527H80V700H177V527H247V700H343V527H397V415H343V285H397V173Z" />
<glyph unicode="$" glyph-name="dollar" horiz-adv-x="415" d="M28 100V211H264V295H96L33 357V530L103 600H165V700H289V600H389V489H163V405H332L394 343V170L324 100H258V0H134V100H28Z" />
<glyph unicode="%" glyph-name="percent" horiz-adv-x="752" d="M507 97H577V216H507V97ZM403 255L462 313H622L682 255V59L622 0H462L403 59V255ZM533 700H636L192 0H89L533 700ZM218 603H148V484H218V603ZM322 445L263 387H103L43 445V641L103 700H263L322 641V445Z" />
<glyph unicode="&amp;" glyph-name="ampersand" horiz-adv-x="517" d="M220 471L260 510V590H194V523L220 471ZM170 271V112H214L245 179L186 287L170 271ZM390 473L281 372L317 305L361 388H499L387 187L497 0H350L316 61L285 0H113L40 73V307L125 385L64 493V628L136
700H317L390 628V473Z" />
<glyph unicode="&apos;" glyph-name="quotesingle" horiz-adv-x="240" d="M44 700H196L175 441H65L44 700Z" />
<glyph unicode="(" glyph-name="parenleft" horiz-adv-x="280" d="M240 -100H114L40 -26V726L114 800H240V690H170V10H240V-100Z" />
<glyph unicode=")" glyph-name="parenright" horiz-adv-x="280" d="M40 800H166L240 726V-26L166 -100H40V10H110V690H40V800Z" />
<glyph unicode="*" glyph-name="asterisk" horiz-adv-x="380" d="M78 662L144 623V700H236V623L302 662L349 581L283 543L349 505L302 425L236 463V387H144V463L78 425L31 505L97 543L31 581L78 662Z" />
<glyph unicode="+" glyph-name="plus" horiz-adv-x="427" d="M270 528V406H392V294H270V172H157V294H35V406H157V528H270Z" />
<glyph unicode="," glyph-name="comma" horiz-adv-x="220" d="M175 20L123 -100H0L45 4V130H175V20Z" />
<glyph unicode="-" glyph-name="hyphen" horiz-adv-x="260" d="M228 295H32V405H228V295Z" />
<glyph unicode="." glyph-name="period" horiz-adv-x="220" d="M45 130H175V0H45V130Z" />
<glyph unicode="/" glyph-name="slash" horiz-adv-x="330" d="M130 -100H0L200 800H330L130 -100Z" />
<glyph unicode="0" glyph-name="zero" horiz-adv-x="423" d="M260 588H163V112H260V588ZM390 80L310 0H113L33 80V620L113 700H310L390 620V80Z" />
<glyph unicode="1" glyph-name="one" horiz-adv-x="423" d="M183 700H287V112H387V0H57V112H157V528L106 478L33 550L183 700Z" />
<glyph unicode="2" glyph-name="two" horiz-adv-x="423" d="M165 112H388V0H35V336L105 406H253V588H165V487H43V630L114 700H313L383 630V365L313 294H165V112Z" />
<glyph unicode="3" glyph-name="three" horiz-adv-x="423" d="M38 620L118 700H302L382 620V399L343 359L390 312V80L310 0H117L37 80V212H155V112H260V300H132V410H252V588H156V488H38V620Z" />
<glyph unicode="4" glyph-name="four" horiz-adv-x="423" d="M222 293V503L142 293H222ZM30 292L201 700H352V293H397V181H352V0H222V181H30V292Z" />
<glyph unicode="5" glyph-name="five" horiz-adv-x="423" d="M40 700H390V588H170V417H310L390 337V80L310 0H115L35 80V213H152V112H260V305H40V700Z" />
<glyph unicode="6" glyph-name="six" horiz-adv-x="423" d="M167 112H260V300H167V112ZM37 80V620L117 700H303L383 620V487H265V588H167V410H310L390 330V80L310 0H117L37 80Z" />
<glyph unicode="7" glyph-name="seven" horiz-adv-x="423" d="M35 588V700H392V533L230 0H98L262 542V588H35Z" />
<glyph unicode="8" glyph-name="eight" horiz-adv-x="423" d="M174 410H252V588H174V410ZM167 112H260V300H167V112ZM44 620L124 700H302L382 620V399L343 359L390 312V80L310 0H117L37 80V312L84 359L44 399V620Z" />
<glyph unicode="9" glyph-name="nine" horiz-adv-x="423" d="M260 588H167V400H260V588ZM390 620V80L310 0H117L37 80V213H156V112H260V290H117L37 370V620L117 700H310L390 620Z" />
<glyph unicode=":" glyph-name="colon" horiz-adv-x="220" d="M45 510H175V380H45V510ZM45 130H175V0H45V130Z" />
<glyph unicode=";" glyph-name="semicolon" horiz-adv-x="220" d="M175 20L123 -100H0L45 4V130H175V20ZM45 510H175V380H45V510Z" />
<glyph unicode="&lt;" glyph-name="less" horiz-adv-x="427" d="M392 140L35 286V414L392 560V436L171 350L392 264V140Z" />
<glyph unicode="=" glyph-name="equal" horiz-adv-x="427" d="M392 205H35V318H392V205ZM392 382H35V495H392V382Z" />
<glyph unicode="&gt;" glyph-name="greater" horiz-adv-x="427" d="M35 560L392 414V286L35 140V264L256 350L35 436V560Z" />
<glyph unicode="?" glyph-name="question" horiz-adv-x="393" d="M134 130H264V0H134V130ZM25 620L105 700H288L368 620V408L253 314L247 213H150L140 379L238 459V588H144V487H25V620Z" />
<glyph unicode="@" glyph-name="at" horiz-adv-x="687" d="M655 0H82L32 50V649L82 699H605L655 649V195L605 145H430L397 178L364 145H238L174 209V333L238 396H365V456H304V431H184V497L241 553H438L495 497V245H545V598H136V100H655V0ZM304 245H365V311H304V245Z" />
<glyph unicode="A" glyph-name="A" horiz-adv-x="429" d="M181 280H248L215 535L181 280ZM284 0L262 168H166L145 0H17L121 700H312L416 0H284Z" />
<glyph unicode="B" glyph-name="B" horiz-adv-x="436" d="M176 411H256V588H176V411ZM176 112H266V299H176V112ZM396 71L325 0H46V700H315L385 630V395L350 360L396 315V71Z" />
<glyph unicode="C" glyph-name="C" horiz-adv-x="425" d="M111 0L40 71V630L111 700H315L385 630V488H266V588H170V112H266V212H385V71L315 0H111Z" />
<glyph unicode="D" glyph-name="D" horiz-adv-x="436" d="M176 112H266V588H176V112ZM396 71L325 0H46V700H325L396 630V71Z" />
<glyph unicode="E" glyph-name="E" horiz-adv-x="404" d="M46 0V700H378V588H176V411H342V299H176V112H378V0H46Z" />
<glyph unicode="F" glyph-name="F" horiz-adv-x="396" d="M176 0H46V700H378V588H176V401H338V289H176V0Z" />
<glyph unicode="G" glyph-name="G" horiz-adv-x="430" d="M111 0L40 71V630L111 700H320L390 630V487H270V588H170V112H260V276H215V388H390V71L320 0H111Z" />
<glyph unicode="H" glyph-name="H" horiz-adv-x="444" d="M399 0H269V299H176V0H46V700H176V411H269V700H399V0Z" />
<glyph unicode="I" glyph-name="I" horiz-adv-x="221" d="M176 0H46V700H176V0Z" />
<glyph unicode="J" glyph-name="J" horiz-adv-x="382" d="M97 0L27 71V213H145V112H207V700H337V71L267 0H97Z" />
<glyph unicode="K" glyph-name="K" horiz-adv-x="458" d="M294 410L453 0H313L216 255L176 177V0H46V700H176V422L304 700H441L294 410Z" />
<glyph unicode="L" glyph-name="L" horiz-adv-x="373" d="M176 112H358V0H46V700H176V112Z" />
<glyph unicode="M" glyph-name="M" horiz-adv-x="558" d="M158 393V0H46V700H186L277 379L368 700H512V0H382V402L309 130H229L158 393Z" />
<glyph unicode="N" glyph-name="N" horiz-adv-x="444" d="M289 700H398V0H269L155 367V0H46V700H174L289 332V700Z" />
<glyph unicode="O" glyph-name="O" horiz-adv-x="430" d="M260 588H170V112H260V588ZM390 71L320 0H111L40 71V630L111 700H320L390 630V71Z" />
<glyph unicode="P" glyph-name="P" horiz-adv-x="436" d="M176 363H266V588H176V363ZM176 0H46V700H325L396 630V321L325 251H176V0Z" />
<glyph unicode="Q" glyph-name="Q" horiz-adv-x="430" d="M260 588H170V112H260V588ZM390 75L464 1L389 -74L315 0H111L40 71V630L111 700H320L390 630V75Z" />
<glyph unicode="R" glyph-name="R" horiz-adv-x="429" d="M176 363H266V588H176V363ZM176 0H46V700H325L396 630V321L349 275L410 0H282L229 251H176V0Z" />
<glyph unicode="S" glyph-name="S" horiz-adv-x="423" d="M258 299H114L44 370V630L114 700H310L380 630V487H258V588H174V411H318L388 341V71L318 0H106L35 71V213H157V112H258V299Z" />
<glyph unicode="T" glyph-name="T" horiz-adv-x="408" d="M15 700H393V588H269V0H139V588H15V700Z" />
<glyph unicode="U" glyph-name="U" horiz-adv-x="437" d="M269 700H392V71L322 0H116L46 71V700H174V112H269V700Z" />
<glyph unicode="V" glyph-name="V" horiz-adv-x="429" d="M218 165L288 700H416L312 0H121L17 700H149L218 165Z" />
<glyph unicode="W" glyph-name="W" horiz-adv-x="602" d="M146 700L178 202L234 640H383L440 201L472 700H586L528 0H358L308 421L256 0H79L22 700H146Z" />
<glyph unicode="X" glyph-name="X" horiz-adv-x="460" d="M152 700L235 499L314 700H442L299 360L452 0H316L223 221L136 0H8L159 359L15 700H152Z" />
<glyph unicode="Y" glyph-name="Y" horiz-adv-x="421" d="M275 234V0H145V234L9 700H142L215 430L288 700H411L275 234Z" />
<glyph unicode="Z" glyph-name="Z" horiz-adv-x="385" d="M17 0V122L230 588H25V700H361V578L148 112H368V0H17Z" />
<glyph unicode="[" glyph-name="bracketleft" horiz-adv-x="280" d="M240 -100H40V800H240V690H170V10H240V-100Z" />
<glyph unicode="\" glyph-name="backslash" horiz-adv-x="330" d="M0 800H130L330 -100H200L0 800Z" />
<glyph unicode="]" glyph-name="bracketright" horiz-adv-x="280" d="M40 800H240V-100H40V10H110V690H40V800Z" />
<glyph unicode="^" glyph-name="asciicircum" horiz-adv-x="427" d="M4 410L150 700H277L423 410H300L213 582L127 410H4Z" />
<glyph unicode="_" glyph-name="underscore" horiz-adv-x="200" d="M200 -177H0V-67H200V-177Z" />
<glyph unicode="`" glyph-name="grave" horiz-adv-x="402" d="M206 700L264 565H140L82 700H206Z" />
<glyph unicode="a" glyph-name="a" horiz-adv-x="400" d="M162 111H237V208H162V111ZM367 0H237V36L201 0H102L32 70V230L102 300H237V389H162V339H42V430L112 500H297L367 430V0Z" />
<glyph unicode="b" glyph-name="b" horiz-adv-x="400" d="M162 111H237V389H162V111ZM367 70L297 0H199L162 36V0H32V700H162V464L199 500H297L367 430V70Z" />
<glyph unicode="c" glyph-name="c" horiz-adv-x="394" d="M102 0L32 70V430L102 500H291L361 430V300H241V389H162V111H241V200H361V70L291 0H102Z" />
<glyph unicode="d" glyph-name="d" horiz-adv-x="400" d="M162 111H237V389H162V111ZM32 430L102 500H201L237 464V700H367V0H237V36L201 0H102L32 70V430Z" />
<glyph unicode="e" glyph-name="e" horiz-adv-x="400" d="M162 296H237V389H162V296ZM32 430L102 500H297L367 430V204H162V111H247V161H367V70L297 0H102L32 70V430Z" />
<glyph unicode="f" glyph-name="f" horiz-adv-x="322" d="M14 500H71V638L133 700H301V589H201V500H293V389H201V0H71V389H14V500Z" />
<glyph unicode="g" glyph-name="g" horiz-adv-x="400" d="M162 111H237V389H162V111ZM32 430L102 500H201L237 464V500H367V-130L297 -200H102L32 -130V-39H152V-89H237V36L201 0H102L32 70V430Z" />
<glyph unicode="h" glyph-name="h" horiz-adv-x="400" d="M237 389H162V0H32V700H162V464L199 500H297L367 430V0H237V389Z" />
<glyph unicode="i" glyph-name="i" horiz-adv-x="207" d="M36 700H172V564H36V700ZM39 500H169V0H39V500Z" />
<glyph unicode="j" glyph-name="j" horiz-adv-x="207" d="M36 700H172V564H36V700ZM169 500V-138L106 -200H-26V-89H39V500H169Z" />
<glyph unicode="k" glyph-name="k" horiz-adv-x="414" d="M283 260L416 0H271L169 212V0H39V700H169V288L271 500H406L283 260Z" />
<glyph unicode="l" glyph-name="l" horiz-adv-x="207" d="M39 700H169V0H39V700Z" />
<glyph unicode="m" glyph-name="m" horiz-adv-x="572" d="M221 389H162V0H32V500H162V464L199 500H281L320 461L359 500H470L540 430V0H410V389H351V0H221V389Z" />
<glyph unicode="n" glyph-name="n" horiz-adv-x="400" d="M237 389H162V0H32V500H162V464L199 500H297L367 430V0H237V389Z" />
<glyph unicode="o" glyph-name="o" horiz-adv-x="400" d="M162 111H237V389H162V111ZM102 0L32 70V430L102 500H297L367 430V70L297 0H102Z" />
<glyph unicode="p" glyph-name="p" horiz-adv-x="400" d="M162 111H237V389H162V111ZM367 70L297 0H199L162 36V-200H32V500H162V464L199 500H297L367 430V70Z" />
<glyph unicode="q" glyph-name="q" horiz-adv-x="400" d="M162 111H237V389H162V111ZM32 430L102 500H201L237 464V500H367V-200H237V36L201 0H102L32 70V430Z" />
<glyph unicode="r" glyph-name="r" horiz-adv-x="340" d="M217 389H162V0H32V500H162V464L199 500H267L322 445V339H217V389Z" />
<glyph unicode="s" glyph-name="s" horiz-adv-x="400" d="M367 70L297 0H102L32 70V161H152V111H237V204H103L41 266V430L111 500H289L359 430V339H239V389H171V296H305L367 234V70Z" />
<glyph unicode="t" glyph-name="t" horiz-adv-x="324" d="M20 500H72V600H202V500H297V389H202V111H287V0H135L72 63V389H20V500Z" />
<glyph unicode="u" glyph-name="u" horiz-adv-x="400" d="M162 111H237V500H367V0H237V36L201 0H102L32 70V500H162V111Z" />
<glyph unicode="v" glyph-name="v" horiz-adv-x="400" d="M293 0H107L13 500H140L203 138L266 500H387L293 0Z" />
<glyph unicode="w" glyph-name="w" horiz-adv-x="574" d="M285 346L239 0H70L14 500H132L163 165L213 500H367L417 164L447 500H560L504 0H331L285 346Z" />
<glyph unicode="x" glyph-name="x" horiz-adv-x="410" d="M205 151L143 0H2L120 260L12 500H143L205 348L267 500H398L290 260L408 0H267L205 151Z" />
<glyph unicode="y" glyph-name="y" d="M137 -6L10 500H136L202 175L269 500H394L271 0L226 -200H86L137 -6Z" />
<glyph unicode="z" glyph-name="z" horiz-adv-x="376" d="M26 104L195 389H34V500H342V396L171 111H350V0H26V104Z" />
<glyph unicode="{" glyph-name="braceleft" horiz-adv-x="280" d="M67 295H23V405H67V726L141 800H240V690H197V389L158 350L197 311V10H240V-100H141L67 -26V295Z" />
<glyph unicode="|" glyph-name="bar" horiz-adv-x="230" d="M180 -100H50V800H180V-100Z" />
<glyph unicode="}" glyph-name="braceright" horiz-adv-x="280" d="M213 405H257V295H213V-26L139 -100H40V10H83V311L122 350L83 389V690H40V800H139L213 726V405Z" />
<glyph unicode="~" glyph-name="asciitilde" horiz-adv-x="380" d="M132 322V283H32V375L72 415L247 380V419H347V327L307 287L132 322Z" />
</font>
</defs>
</svg>
